Résultats de 1 à 4 sur 4
Like Tree1Likes
  • 1 Post By wolfman

Sujet : »*UTB 1 LIEN Transformers 1 -2007 Multi-VF2 1080p BluRay HDlight x264~Tonyk~

  1. #1
    Super Moderator
    Inscrit
    juin 2016
    Messages
    23 797

    »*UTB 1 LIEN Transformers 1 -2007 Multi-VF2 1080p BluRay HDlight x264~Tonyk~


    Transformers














    Réalisateur : Michael Bay
    Durée :2H24min
    Date de Sortie :2007-07-25
    Année de commencement :2007
    Distributeur :Paramount Pictures France
    Genre : Fantastique, Sci-fi
    Titre Original :Transformers
    Lien Direct : http://www.allocine.fr/film/fichefilm_g . 60502.html




    Une guerre sans merci oppose depuis des temps immémoriaux deux races de robots extraterrestres : les Autobots et les cruels Decepticons. Son enjeu : la maîtrise de l'univers...Dans les premières années du 21ème siècle, le conflit s'étend à la Terre, et le jeune Sam Witwicky devient, à son insu, l'ultime espoir de l'humanité. Semblable à des milliers d'adolescents, Sam n'a connu que les soucis de son âge : le lycée, les amis, les voitures, les filles... Entraîné avec sa nouvelle copine, Mikaela, au coeur d'un mortel affrontement, il ne tardera pas à comprendre le sens de la devise de la famille Witwicky : "Sans sacrifice, point de victoire !"




    Release :Transformers 1 -2007 Multi-VF2 1080p BluRay HDlight.x264~Tonyk~
    Hébergeurs :Uptobox
    Langue : Multi (Fr-En-It-Es)
    Sous-Titres : Faites votre choix...
    Qualité : HDLight 1080p
    Codec : X264
    Format : Mkv
    Découpé avec : Aucun
    Nombre de Fichier(s) & Tailles :1x3460Mo





    Code:
    GeneralComplete name : Transformers 1 -2007 Multi-VF2 1080p BluRay HDlight.x264~Tonyk~.mkvFormat : MatroskaFormat version : Version 4 / Version 2File size : 3.46 GiBDuration : 2h 23mnOverall bit rate : 3 453 KbpsMovie name : Tranformers (2007)Encoded date : UTC 2014-05-05 06:42:15Writing application : mkvmerge v6.9.1 ('Blue Panther') 32bit built on Apr 18 2014 18:15:44Writing library : libebml v1.3.0 + libmatroska v1.4.1VideoID : 1Format : AVCFormat/Info : Advanced Video CodecFormat profile : High@L4.1Format settings, CABAC : YesFormat settings, ReFrames : 5 framesCodec ID : V_MPEG4/ISO/AVCDuration : 2h 23mnBit rate : 2 043 KbpsWidth : 1 920 pixelsHeight : 1 080 pixelsDisplay aspect ratio : 16:9Frame rate mode : ConstantFrame rate : 23.976 fpsColor space : YUVChroma subsampling : 4:2:0Bit depth : 8 bitsScan type : ProgressiveBits/(Pixel*Frame) : 0.041Stream size : 1.98 GiB (57%)Writing library : x264 core 130 r2273 b3065e6Language : FrenchDefault : YesForced : NoColor primaries : BT.709Transfer characteristics : BT.709Matrix coefficients : BT.709Audio #1ID : 2Format : AC-3Format/Info : Audio Coding 3Mode extension : CM (complete main)Format settings, Endianness : BigCodec ID : A_AC3Duration : 2h 23mnBit rate mode : ConstantBit rate : 384 KbpsChannel(s) : 6 channelsChannel positions : Front: L C R, Side: L R, LFESampling rate : 48.0 KHzBit depth : 16 bitsCompression mode : LossyStream size : 394 MiB (11%)Title : AC3-5.1-VFFLanguage : FrenchDefault : YesForced : NoAudio #2ID : 3Format : AC-3Format/Info : Audio Coding 3Mode extension : CM (complete main)Format settings, Endianness : BigCodec ID : A_AC3Duration : 2h 23mnBit rate mode : ConstantBit rate : 384 KbpsChannel(s) : 6 channelsChannel positions : Front: L C R, Side: L R, LFESampling rate : 48.0 KHzBit depth : 16 bitsCompression mode : LossyStream size : 394 MiB (11%)Title : AC3 5.1Language : EnglishDefault : NoForced : NoAudio #3ID : 16Format : AC-3Format/Info : Audio Coding 3Mode extension : CM (complete main)Format settings, Endianness : BigCodec ID : A_AC3Duration : 2h 23mnBit rate mode : ConstantBit rate : 640 KbpsChannel(s) : 6 channelsChannel positions : Front: L C R, Side: L R, LFESampling rate : 48.0 KHzBit depth : 16 bitsCompression mode : LossyStream size : 657 MiB (19%)Title : AC3-5.1-VFQLanguage : FrenchDefault : NoForced : NoText #1ID : 4Format : UTF-8Codec ID : S_TEXT/UTF8Codec ID/Info : UTF-8 Plain TextTitle : forcésLanguage : FrenchDefault : YesForced : YesText #2ID : 5Format : UTF-8Codec ID : S_TEXT/UTF8Codec ID/Info : UTF-8 Plain TextTitle : completsLanguage : FrenchDefault : NoForced : NoText #3ID : 6Format : UTF-8Codec ID : S_TEXT/UTF8Codec ID/Info : UTF-8 Plain TextTitle : completsLanguage : EnglishDefault : NoForced : NoText #4ID : 7Format : ASSCodec ID : S_TEXT/ASSCodec ID/Info : Advanced Sub Station AlphaCompression mode : LosslessLanguage : HungarianDefault : NoForced : NoText #5ID : 8Format : ASSCodec ID : S_TEXT/ASSCodec ID/Info : Advanced Sub Station AlphaCompression mode : LosslessLanguage : NorwegianDefault : NoForced : NoText #6ID : 9Format : ASSCodec ID : S_TEXT/ASSCodec ID/Info : Advanced Sub Station AlphaCompression mode : LosslessLanguage : PolishDefault : NoForced : NoText #7ID : 10Format : ASSCodec ID : S_TEXT/ASSCodec ID/Info : Advanced Sub Station AlphaCompression mode : LosslessLanguage : PortugueseDefault : NoForced : NoText #8ID : 11Format : ASSCodec ID : S_TEXT/ASSCodec ID/Info : Advanced Sub Station AlphaCompression mode : LosslessLanguage : RussianDefault : NoForced : NoText #9ID : 12Format : ASSCodec ID : S_TEXT/ASSCodec ID/Info : Advanced Sub Station AlphaCompression mode : LosslessLanguage : SerbianDefault : NoForced : NoText #10ID : 13Format : ASSCodec ID : S_TEXT/ASSCodec ID/Info : Advanced Sub Station AlphaCompression mode : LosslessLanguage : SlovenianDefault : NoForced : NoText #11ID : 14Format : ASSCodec ID : S_TEXT/ASSCodec ID/Info : Advanced Sub Station AlphaCompression mode : LosslessLanguage : SpanishDefault : NoForced : NoText #12ID : 15Format : ASSCodec ID : S_TEXT/ASSCodec ID/Info : Advanced Sub Station AlphaCompression mode : LosslessLanguage : SwedishDefault : NoForced : No
    firemancorse likes this.

  2. #2
    Junior Member
    Inscrit
    janvier 2017
    Messages
    3
    super boulot. Merci

  3. #3
    Junior Member
    Inscrit
    janvier 2017
    Messages
    3
    super boulot.Merci

  4. #4
    Junior Member
    Inscrit
    janvier 2017
    Messages
    2
    super boulot. Merci

Règles des messages

  • Vous ne pouvez pas créer de sujets
  • Vous ne pouvez pas répondre aux sujets
  • Vous ne pouvez pas importer de fichiers joints
  • Vous ne pouvez pas éditer vos messages
  •